#TITLE:婚礼进行曲;
#SUBTITLE:Wedding Dash;
#ARTIST:Tina;
#TITLETRANSLIT:;
#SUBTITLETRANSLIT:;
#ARTISTTRANSLIT:;
#CREDIT:;
#BANNER: -logo.jpg;
#BACKGROUND:.jpg;
#LYRICSPATH:;
#CDTITLE:Lan.png;
#MUSIC:.mp3;
#OFFSET:-0.140;
#SAMPLESTART:100.000;
#SAMPLELENGTH:12.000;
#SELECTABLE:YES;
#BPMS:0.000=99.940;
#STOPS:;
#BGCHANGES:;
// cache tags:
#FIRSTBEAT:0.000;
#LASTBEAT:228.000;
#SONGFILENAME:Songs/Super Dancer Online//.sm;
#HASMUSIC:1;
#HASBANNER:1;
#MUSICLENGTH:137.462;
// end cache tags

//---------------dance-single - 标准----------------
#NOTES:
     dance-single:
     标准:
     Hard:
     7:
     0.492,0.581,0.618,0.153,0.200,363.000,85.000,21.000,0.000,21.000:


1000
0000
0000
0000
0100
0000
0000
0010
0010
0000
0000
0000
0100
0000
0000
0000
,
1000
0000
0000
0000
0100
0000
0010
0000
0001
0000
0000
0000
1000
0100
0010
0001
,
1000
0000
0100
0010
1000
0000
0010
0001
,
1000
0000
0000
0100
0100
0000
0010
0000
0001
0000
0001
0000
0010
0000
0100
0000
,
1001
0000
0000
0000
0010
0000
0000
1000
1000
0000
0000
0000
0100
0000
0010
0000
,
1001
0000
0100
0010
0001
0100
1000
0010
,
1001
0000
0100
0010
0001
0000
0010
0100
,
1000
0000
1000
0010
0001
0000
0000
0000
,
2010
0000
0100
0010
0001
0000
0001
0000
,
0001
0000
0001
0010
0100
0000
0000
0000
,
3102
0000
1000
0100
0010
0000
0010
0000
,
0010
0010
1000
0000
,
1103
0000
0010
0001
0001
0000
0001
0000
,
1000
0010
0001
0001
0001
0000
0100
0000
,
0101
0000
0010
0100
1000
0000
1000
0000
,
0001
0110
1000
0110
,
1001
0010
0101
0010
1001
0010
1001
0100
,
1001
0000
0100
0000
1010
0000
0001
0000
0110
0000
0000
1000
0100
0010
0001
0010
,
1000
0000
0100
0100
0001
0000
0001
0000
,
1000
1000
0000
0000
0001
0000
0010
0010
1100
0000
0000
0000
0000
0000
0000
0000
,
0000
0000
0000
1000
,
0011
0000
0000
1000
1000
0000
0000
0000
1000
0100
0010
0001
1000
0000
0000
0000
,
1100
0000
0000
0010
0001
0000
0000
1000
0100
0010
0001
0010
1000
0000
0000
0000
,
0110
1000
0001
0000
1000
0010
0001
0000
,
0001
0100
2000
0000
0000
0000
3011
0100
,
1010
0000
0001
0000
0010
0100
1000
0000
0010
0000
0100
0000
0011
0000
1000
0000
,
1010
1000
0101
0110
0100
1000
0011
0010
,
1100
0100
1010
1001
0010
0100
1001
0100
,
0011
0010
1001
1100
1000
0010
2020
0000
,
0100
0001
0100
0001
,
0001
0100
0100
3032
,
0100
0010
1003
0210
,
0001
0010
1000
0000
0312
0000
0000
0000
1000
0100
0010
0000
2103
0000
0000
0000
,
0001
0010
0100
0000
3021
0000
0000
0000
0000
0000
0100
1000
0030
0000
0000
0000
,
0110
0000
0000
0000
1001
0100
0010
0001
0010
0100
1000
0100
0010
0001
0010
0100
,
1000
0010
0100
1000
0001
0010
0100
1000
0010
0100
0010
1000
0002
0000
0000
0000
,
0000
0000
0103
0020
,
0000
0032
0000
1103
,
1001
0000
0100
0000
0010
0001
1010
0000
,
0100
0000
0001
0000
1000
0010
0101
0000
,
1000
0100
0010
0001
0010
0100
1000
0001
0010
0100
0001
0010
0100
0000
0000
0010
,
0001
0010
0100
1000
0100
0000
0000
0000
0010
0000
0001
0000
1100
0000
0100
0000
,
0011
0100
1010
0100
1001
0010
0101
1000
,
0101
1000
0011
0100
1010
0100
0111
0000
,
0000
1000
0001
1000
0001
0000
0000
0000
1000
0100
0010
0000
0001
0000
0000
0000
,
0001
0010
0100
1000
0000
0000
0010
0000
1001
0000
0000
0000
1110
0000
0010
0000
,
0001
0000
0000
1001
1010
0000
0000
0000
0001
0000
1000
0000
0011
0000
0100
0000
,
1001
0000
0000
1010
1001
0000
0000
0000
0100
0000
0001
0000
1010
0000
0100
0000
,
0011
0000
0000
1001
1010
0000
0000
0000
0100
0000
0001
0000
1010
0000
0000
0000
,
0110
0000
0000
1001
1001
0000
0000
0000
0100
0000
0000
0000
0001
0000
1010
0000
,
0100
0000
1001
0000
0100
0000
1010
0000
0100
0010
0001
0000
0010
0000
1100
0000
,
0001
0000
1100
0000
0010
0000
1001
0000
0100
0010
0001
0000
0010
0000
1001
0000
,
0100
1001
0010
1001
0100
0011
2020
0000
,
0000
3232
0000
2303
,
0000
0000
3020
0000
0000
0000
1030
1000
,
0001
0001
0100
0100
1000
1000
0111
0000
,
1101
0000
0000
0001
0220
0000
0000
0000
0000
0000
0000
0000
0000
0000
0000
0000
,
0330
0000
0000
0000
;
